<?xml version="1.0" standalone="no"?> 
<!DOCTYPE svg PUBLIC "-//W3C//DTD SVG 1.1//EN" "http://www.w3.org/Graphics/SVG/1.1/DTD/svg11.dtd" >
<svg xmlns="http://www.w3.org/2000/svg">
<defs>
  <font id="icon" horiz-adv-x="578.8">
    <font-face font-family="icon"
      units-per-em="512" ascent="512"
      descent="0" />
    <missing-glyph horiz-adv-x="0" />
    <glyph glyph-name="anchor"
      unicode="&#xF001;"
      horiz-adv-x="512" d=" M51.7 369.6H460.3C488.6 369.6 502.7 335.5 482.7 315.5L278.4 111.1C266 98.7000000000001 245.8 98.7000000000001 233.5 111.1L29.3 315.4C9.3 335.4 23.4 369.6 51.7 369.6z" />
    <glyph glyph-name="arrow-circle-down"
      unicode="&#xF002;"
      horiz-adv-x="512" d=" M106.6 271.3L242.6 135.3C246.4 131.5 250.9 129.6 256.1 129.6C261.3 129.6 265.8 131.5 269.6 135.3L405.6 271.3C409.4000000000001 275.1 411.3 279.6 411.3 284.8S409.4000000000001 294.5 405.6 298.3L375.1 328.8C371.3 332.6 366.8 334.5 361.6 334.5C356.4000000000001 334.5 351.9000000000001 332.6 348.1 328.8L256 236.8L164.1 328.7000000000001C160.3 332.5 155.8 334.4 150.6 334.4C145.4 334.4 140.9 332.5 137.1 328.7000000000001L106.6 298.2000000000001C102.8 294.4 100.9 289.9 100.9 284.7000000000001S102.8 275.1 106.6 271.3zM256 26C214.3 26 175.8 36.3 140.6 56.8C105.4 77.4 77.5 105.3 56.9 140.5S26 214.3 26 256S36.3 336.2 56.8 371.4S105.3 434.5 140.5 455.1S214.3 486 256 486S336.2 475.7 371.4 455.2S434.5 406.7 455.1 371.5S486 297.7 486 256S475.7 175.8 455.2 140.6S406.7 77.5 371.5 56.9C336.2 36.3 297.7 26 256 26z" />
    <glyph glyph-name="arrow-circle-left"
      unicode="&#xF003;"
      horiz-adv-x="512" d=" M271.3 405.4L135.3 269.4C131.5 265.6 129.6 261.1 129.6 255.9C129.6 250.7 131.5 246.2 135.3 242.4L271.3 106.4C275.1 102.6 279.6 100.7 284.8 100.7S294.5 102.6 298.3 106.4L328.8 136.9C332.6 140.7 334.5 145.2 334.5 150.4C334.5 155.6 332.6 160.1 328.8 163.9L236.8 256L328.7000000000001 347.9C332.5000000000001 351.7000000000001 334.4000000000001 356.2000000000001 334.4000000000001 361.4C334.4000000000001 366.6 332.5000000000001 371.1 328.7000000000001 374.9L298.2000000000001 405.4C294.4000000000001 409.2 289.9000000000001 411.1 284.7000000000001 411.1S275.1 409.2 271.3 405.4zM26 256C26 297.7 36.3 336.2 56.8 371.4S105.3 434.5 140.5 455.1S214.3 486 256 486S336.2 475.7 371.4 455.2S434.5 406.7 455.1 371.5S486 297.7 486 256S475.7 175.8 455.2 140.6S406.7 77.5 371.5 56.9S297.7 26 256 26S175.8 36.3 140.6 56.8S77.5 105.3 56.9 140.5S26 214.3 26 256z" />
    <glyph glyph-name="arrow-circle-right"
      unicode="&#xF004;"
      horiz-adv-x="512" d=" M240.7 106.6L376.7 242.6C380.5 246.4000000000001 382.4 250.9000000000001 382.4 256.1C382.4 261.3 380.5 265.8 376.7 269.6L240.7 405.6C236.9 409.4000000000001 232.4 411.3 227.2 411.3S217.5 409.4000000000001 213.7 405.6L183.2 375.1C179.4 371.3 177.5 366.8 177.5 361.6S179.4 351.9000000000001 183.2 348.1L275.1 256.2000000000001L183.2 164.3C179.4 160.5 177.5 156 177.5 150.8C177.5 145.6 179.4 141.1 183.2 137.3L213.7 106.8C217.5 103 222 101.1 227.2 101.1S236.9 102.8 240.7 106.6zM486 256C486 214.3 475.7 175.8 455.2 140.6C434.6 105.4 406.7 77.5 371.5 56.9C336.2 36.3 297.7 26 256 26S175.8 36.3 140.6 56.8C105.4 77.4 77.5 105.3 56.9 140.5S26 214.3 26 256S36.3 336.2 56.8 371.4S105.3 434.5 140.5 455.1S214.3 486 256 486S336.2 475.7 371.4 455.2S434.5 406.7 455.1 371.5C475.7 336.2 486 297.7 486 256z" />
    <glyph glyph-name="arrow-circle-up"
      unicode="&#xF005;"
      horiz-adv-x="512" d=" M405.4 240.7L269.4 376.7C265.6 380.5 261.1 382.4 255.9 382.4C250.7 382.4 246.2 380.5 242.4 376.7L106.4 240.7C102.6 236.9 100.7 232.4 100.7 227.2S102.6 217.5 106.4 213.7L136.9 183.2C140.7 179.4 145.2 177.5 150.4 177.5S160.1 179.4 163.9 183.2L255.8 275.1L347.7 183.2C351.5 179.4 356 177.5 361.2 177.5C366.4 177.5 370.9 179.4 374.7 183.2L405.2 213.7C409 217.5 410.9 222 410.9 227.2S409.2 236.9 405.4 240.7zM256 486C297.7 486 336.2 475.7 371.4 455.2S434.5 406.7 455.1 371.5C475.7 336.2 486 297.7 486 256S475.7 175.8 455.2 140.6C434.6 105.4 406.7 77.5 371.5 56.9S297.7 26 256 26S175.8 36.3 140.6 56.8S77.5 105.3 56.9 140.5S26 214.3 26 256S36.3 336.2 56.8 371.4S105.3 434.5 140.5 455.1S214.3 486 256 486z" />
    <glyph glyph-name="arrow-double-down"
      unicode="&#xF006;"
      horiz-adv-x="512" d=" M239.1 255.7L103.1 391.7C93.7 401.1 93.7 416.3 103.1 425.6L125.7 448.2C135.1 457.6 150.3 457.6 159.6 448.2L256 351.8L352.4 448.2C361.8 457.6 377 457.6 386.3 448.2L409.1 425.7C418.5 416.3 418.5 401.1 409.1 391.8L273.1 255.8C263.7 246.3 248.5 246.3 239.1 255.7zM273.1 63.7L409.1 199.7C418.5 209.1 418.5 224.3 409.1 233.6L386.5 256.2C377.1 265.6 361.9 265.6 352.6 256.2L256.2000000000001 159.8L159.8000000000001 256.2C150.4 265.6 135.2000000000001 265.6 125.9 256.2L103.3 233.6C93.9 224.2 93.9 209 103.3 199.7L239.3000000000001 63.7C248.5 54.3 263.7 54.3 273.1 63.7L273.1 63.7z" />
    <glyph glyph-name="arrow-double-left"
      unicode="&#xF007;"
      horiz-adv-x="512" d=" M255.8 273L391.8 409C401.2 418.4 416.4000000000001 418.4 425.7 409L448.3 386.4C457.7 377 457.7 361.8 448.3 352.5L351.9 256.1L448.3 159.7C457.6999999999999 150.3 457.6999999999999 135.1 448.3 125.8L425.8 103C416.4000000000001 93.6 401.2 93.6 391.9000000000001 103L255.9000000000001 239C246.4 248.4 246.4 263.6 255.8 273zM63.8 239L199.8 103C209.2 93.6 224.4 93.6 233.7 103L256.3 125.6C265.7 135 265.7 150.2000000000001 256.3 159.5L159.9 255.9L256.3 352.3C265.7 361.7 265.7 376.9 256.3 386.2L233.7 408.8C224.3 418.2 209.1 418.2 199.8 408.8L63.8 272.8C54.4 263.6 54.4 248.4 63.8 239L63.8 239z" />
    <glyph glyph-name="arrow-double-right"
      unicode="&#xF008;"
      horiz-adv-x="512" d=" M256.3 239L120.3 103C110.9 93.6 95.7 93.6 86.4 103L63.8 125.6C54.4 135 54.4 150.2000000000001 63.8 159.5L160.2 255.9L63.8 352.3C54.4 361.7 54.4 376.9 63.8 386.2L86.3 409C95.7 418.4 110.9 418.4 120.2 409L256.2 273C265.7 263.6 265.7 248.4 256.3 239zM448.3 273L312.3 409C302.9000000000001 418.4 287.7 418.4 278.4000000000001 409L255.8000000000001 386.4C246.4000000000001 377 246.4000000000001 361.8 255.8000000000001 352.5L352.2000000000001 256.1L255.8000000000001 159.7C246.4000000000001 150.3 246.4000000000001 135.1 255.8000000000001 125.8L278.4000000000001 103.2C287.8 93.8 303.0000000000001 93.8 312.3 103.2L448.3 239.2C457.7 248.4 457.7 263.6 448.3 273L448.3 273z" />
    <glyph glyph-name="arrow-double-up"
      unicode="&#xF009;"
      horiz-adv-x="512" d=" M273 256.3L409 120.3C418.4 110.9 418.4 95.7 409 86.4L386.4 63.8C377 54.4 361.8 54.4 352.5 63.8L256.1 160.2000000000001L159.7 63.8000000000001C150.3 54.4000000000001 135.1 54.4000000000001 125.8 63.8000000000001L103 86.2C93.6 95.6 93.6 110.8 103 120.1L239 256.1C248.4 265.7 263.6 265.7 273 256.3zM239 448.2L103 312.2C93.6 302.8 93.6 287.6 103 278.3L125.6 255.7C135 246.3 150.2 246.3 159.5 255.7L255.9 352.1L352.3 255.7C361.7 246.3 376.9000000000001 246.3 386.2 255.7L408.8 278.3C418.2 287.7 418.2 302.9 408.8 312.2L272.8 448.2C263.6 457.6 248.4 457.6 239 448.2L239 448.2z" />
    <glyph glyph-name="arrow-down"
      unicode="&#xF00A;"
      horiz-adv-x="512" d=" M232.1 120.7L41 311.9C27.8 325.1 27.8 346.5 41 359.6L72.8 391.4000000000001C86 404.6 107.4 404.6 120.5 391.4000000000001L256 255.9000000000001L391.5 391.4000000000001C404.7 404.6 426.1 404.6 439.2 391.4000000000001L471.3 359.8000000000001C484.5 346.6 484.5 325.2000000000001 471.3 312.1L279.9 120.8C266.7 107.5 245.4 107.5 232.1 120.7z" />
    <glyph glyph-name="arrow-left"
      unicode="&#xF00B;"
      horiz-adv-x="512" d=" M120.7 279.9L311.9 471.1C325.1 484.3 346.5 484.3 359.6 471.1L391.4 439.3C404.6 426.1 404.6 404.7 391.4 391.6L255.8 256.1L391.3 120.6C404.5 107.4 404.5 86 391.3 72.9L359.7 40.8C346.5 27.6 325.1 27.6 312 40.8L120.9 232.1C107.5 245.3 107.5 266.7 120.7 279.9z" />
    <glyph glyph-name="arrow-right"
      unicode="&#xF00C;"
      horiz-adv-x="512" d=" M391.4 232.1L200.2 40.9C187 27.7 165.6 27.7 152.5 40.9L120.7 72.7C107.5 85.9 107.5 107.3 120.7 120.4L256.2 255.9L120.7 391.4C107.5 404.6 107.5 426 120.7 439.1L152.3 471.2C165.5 484.4 186.9 484.4 200 471.2L391.2 280C404.6 266.7 404.6 245.3 391.4 232.1z" />
    <glyph glyph-name="arrow-up"
      unicode="&#xF00D;"
      horiz-adv-x="512" d=" M279.9 391.3L471.1 200.1C484.3 186.9 484.3 165.5 471.1 152.4L439.3 120.6C426.1 107.4 404.7 107.4 391.6 120.6L256.2 256.2L120.7 120.7C107.5 107.5 86.1 107.5 73 120.7L41 152.3C27.8 165.5 27.8 186.9 41 200L232.2 391.2C245.4 404.5 266.7 404.5 279.9 391.3z" />
    <glyph glyph-name="bell"
      unicode="&#xF00E;"
      horiz-adv-x="512" d=" M96.1 171.2C80.9 149.6 83.3 120.5 102 101.8C120.7 83.1 149.9 80.6999999999999 171.4 95.9L172.7 96.8L97 172.6L96.1 171.2z M314.9 57.5C314.9 63.7 314.4 69.5 313.8 75C311.6 98.4 309.8 118.6 347.9 156.7L378.1 186.9C422.6 231.4 430.3 301.6 396.8 354.6C401.9 356.3 406.4 359 410 362.6C423.1 375.7 423.1 397 410 410.1C396.8999999999999 423.2 375.6 423.2 362.5 410.1C358.8 406.4 356.1 402 354.5 396.9C301.5 430.3 231.3 422.6 186.8 378.2L156.6 348C118.5 309.9 98.3 311.7 74.9 313.9C69.3 314.4 63.6 314.9 57.4 315H57L27 285L285 27L315 57L314.9 57.5z" />
    <glyph glyph-name="bell2"
      unicode="&#xF00F;"
      horiz-adv-x="512" d=" M408 407C324.1 491 187.9 491 104 407S20 186.9 104 103S324.1 19 408 103S492 323.1 408 407zM201.9 152.3C188 142.4 169.2 144 157.1 156.1C145 168.2000000000001 143.5 187 153.3 200.9L153.9 201.7000000000001L202.8 152.8000000000001L201.9 152.3zM275.4 107.5L108.6 274.3L128 293.7000000000001L128.4 293.7000000000001C132.4 293.7000000000001 136.1 293.3 139.7 293C154.8 291.6 167.9 290.4000000000001 192.5 315L212 334.5C240.7 363.2000000000001 286.2 368.2000000000001 320.4 346.6C321.5 349.9000000000001 323.2 352.8 325.6 355.2000000000001C334.1 363.7000000000001 347.9 363.6 356.3 355.2000000000001C364.7 346.8 364.7 332.9 356.3 324.5C354 322.2000000000001 351.1 320.4000000000001 347.7 319.3000000000001C369.3 285.1 364.3999999999999 239.7000000000001 335.5999999999999 210.9L316.0999999999999 191.4C291.4999999999999 166.8 292.7 153.7000000000001 294.0999999999999 138.6C294.4999999999999 135 294.7 131.3 294.7999999999999 127.3V126.9L275.4 107.5L275.4 107.5z" />
    <glyph glyph-name="binder"
      unicode="&#xF010;"
      horiz-adv-x="512" d=" M132.4 286.3H379.9V254.6H132.4z M132.1 214.2H379.6V182.5H132.1z M132.1 142.2H310.9V110.5H132.1z M422.1 438.1H384.6V402.1C384.6 388.7 373.5 377.8 360 377.8H311C297.4 377.8 286.4 388.7 286.4 402.1V438.1H225.6V402.5C225.6 388.9 214.4 377.8 200.7 377.8H152.3C138.6 377.8 127.4 388.9 127.4 402.5V438.1H89.9C65.5 438.1 45.7 418.4 45.7 394.3V67.8C45.7 43.6 65.5 24 89.9 24H422.2000000000001C446.6 24 466.5000000000001 43.7 466.5000000000001 67.8V394.3C466.4 418.5 446.5 438.1 422.1 438.1zM424.4 77.9C424.4 70.1 419.2 64.9 411.4 64.9H99.6C91.8 64.9 86.6 70.1 86.6 77.9V326.6H424.4V77.9z M152.3 395.1H200.7C204.8 395.1 208.1 398.4 208.1 402.5V469.4C208.1 479.6 199.7 488 189.4 488H163.6C153.3 488 144.9 479.7 144.9 469.4V402.5C144.8 398.4 148.2 395.1 152.3 395.1z M311 395.1H360C363.9 395.1 367.1 398.3 367.1 402.2V469.7C367.1 479.8 358.8 488 348.7000000000001 488H322.3000000000001C312.1000000000001 488 303.9000000000001 479.8 303.9000000000001 469.7V402.2C303.9 398.3 307.1 395.1 311 395.1z" />
    <glyph glyph-name="blank"
      unicode="&#xF011;"
      horiz-adv-x="512" d=" M418 114.3H370V50.3H50V370.3L123.3 370V418.3H50C23.5 418.3 2 396.8 2 370.3V50.3C2 23.8 23.5 2.3 50 2.3H370C396.5 2.3 418 23.8 418 50.3V114.3z M463 510H239H191H143C116.5 510 95 488.5 95 462V142C95 115.5 116.5 94 143 94H463C489.5 94 511 115.5 511 142V190V238V462C511 488.5 489.5 510 463 510zM463 142H143V350H463V142z" />
    <glyph glyph-name="check"
      unicode="&#xF012;"
      horiz-adv-x="512" d=" M173.898 72.596L7.498 238.996C-2.499 248.993 -2.499 265.202 7.498 275.2L43.701 311.404C53.698 321.402 69.908 321.402 79.905 311.404L192 199.31L432.0950000000001 439.404C442.0920000000001 449.401 458.302 449.401 468.299 439.404L504.5020000000001 403.2C514.499 393.203 514.499 376.9940000000001 504.5020000000001 366.996L210.1020000000001 72.595C200.1040000000001 62.598 183.8950000000001 62.598 173.8980000000001 72.596z" />
    <glyph glyph-name="cog"
      unicode="&#xF013;"
      horiz-adv-x="512" d=" M444.788 220.9L487.404 196.301C492.271 193.492 494.53 187.683 492.863 182.316C481.793 146.674 462.893 114.474 438.174 87.73A12.016 12.016 0 0 1 423.342 85.4759999999999L380.758 110.0709999999999A191.577 191.577 0 0 1 319.999 74.9409999999999V25.7589999999999A12.01 12.01 0 0 1 310.622 14.0409999999999C275.666 6.1909999999999 238.123 5.7849999999999 201.403 14.0339999999999C195.913 15.2669999999999 192 20.1299999999999 192 25.7569999999999V74.9409999999999A191.555 191.555 0 0 1 131.241 110.0709999999999L88.657 85.4759999999999A12.016 12.016 0 0 1 73.825 87.7299999999999C49.107 114.4739999999999 30.206 146.6739999999999 19.136 182.3159999999999C17.469 187.6819999999999 19.728 193.4909999999999 24.595 196.3009999999999L67.212 220.9A193.48 193.48 0 0 1 67.212 291.099L24.596 315.698C19.729 318.507 17.47 324.316 19.137 329.683C30.207 365.325 49.107 397.525 73.826 424.269A12.016 12.016 0 0 1 88.658 426.523L131.242 401.928A191.577 191.577 0 0 1 192.001 437.058V486.241A12.01 12.01 0 0 1 201.3780000000001 497.959C236.3340000000001 505.809 273.8770000000001 506.215 310.5970000000001 497.966C316.0870000000001 496.733 320.0000000000001 491.87 320.0000000000001 486.243V437.059A191.555 191.555 0 0 1 380.7590000000001 401.929L423.3430000000001 426.524A12.016 12.016 0 0 1 438.1750000000001 424.27C462.8930000000001 397.526 481.7940000000001 365.326 492.8640000000001 329.684C494.5310000000001 324.318 492.2720000000001 318.509 487.4050000000001 315.699L444.788 291.1A193.485 193.485 0 0 1 444.788 220.9zM336 256C336 300.112 300.112 336 256 336S176 300.112 176 256S211.888 176 256 176S336 211.888 336 256z" />
    <glyph glyph-name="column"
      unicode="&#xF014;"
      horiz-adv-x="512" d=" M442.5 385.6L385.6 442.5C370.4000000000001 457.7 345.7000000000001 457.7 330.4000000000001 442.5L293.5000000000001 405.6L113.1 225.3C105.7 217.9 99.9 208.8 96.3 198.8L59.8 97C55.9 86.4 58.7 74.5 66.6 66.5C74.6 58.5 86.5 55.9 97.1 59.7L198.8 96.2C208.7 99.8 217.8 105.5 225.3 113L396 283.8L396 283.8L405.6 293.4L442.5 330.3L442.5 330.3C457.7 345.7 457.8 370.3 442.5 385.6zM189.5 122L124.7 98.7L98.7 124.7L122 189.5C122.2 189.9 122.4 190.5 122.6 190.9L190.9 122.6C190.5 122.4 190 122.1 189.5 122z" />
    <glyph glyph-name="crown"
      unicode="&#xF015;"
      horiz-adv-x="578.8" d=" M99.9 385.5C99.9 369.1 86.6 355.8 70.2 355.8C53.8 355.8 40.4 369.1 40.4 385.5C40.4 401.9 53.7 415.3 70.2 415.3C86.6 415.3 99.9 401.9 99.9 385.5 M538.4 385.5C538.4 369.1 525.1 355.8 508.6 355.8C492.2 355.8 478.8 369.1 478.8 385.5C478.8 401.9 492.1 415.3 508.6 415.3C525.1 415.3 538.4 401.9 538.4 385.5 M319.1 435.4C319.1 419 305.8 405.7 289.3 405.7C272.9000000000001 405.7 259.5 419 259.5 435.4C259.5 451.8 272.8 465.2 289.3 465.2C305.8 465.1 319.1 451.8 319.1 435.4 M463.8 128.3L489.8 329.1L383.8 254.2L289.4 379L194.9 254.2L88.9 329.1L114.9 128.3z M119 97.1L127 34.9L289.4 34.9L451.7 34.9L459.8 97.1z" />
    <glyph glyph-name="exclamation"
      unicode="&#xF016;"
      horiz-adv-x="512" d=" M504 256C504 119.003 392.957 8 256 8S8 119.003 8 256C8 392.9170000000001 119.043 504 256 504S504 392.9170000000001 504 256zM256 206C230.595 206 210 185.405 210 160S230.595 114 256 114S302 134.595 302 160S281.405 206 256 206zM212.327 371.346L219.745 235.346C220.092 228.9820000000001 225.354 224 231.727 224H280.273C286.646 224 291.908 228.9820000000001 292.255 235.346L299.673 371.346C300.048 378.2200000000001 294.575 384 287.6910000000001 384H224.308C217.424 384 211.952 378.2200000000001 212.327 371.346z" />
    <glyph glyph-name="eye"
      unicode="&#xF017;"
      horiz-adv-x="512" d=" M468.5 274.4C425.9 346.7 346.5 395 256 395C165.5 395 86 346.7 43.5 274.4C36.8 263 36.8 248.9 43.5 237.6C86.1 165.3 165.5 117 256 117C346.5 117 426 165.3 468.5 237.6C475.2 249 475.2 263 468.5 274.4L468.5 274.4zM256 153.3C199.2 153.3 153.3 199.3 153.3 256C153.3 312.8 199.3 358.7 256 358.7C312.8 358.7 358.7 312.7 358.7 256C358.7 199.2 312.8 153.3 256 153.3zM334.6 256C334.6 212.6 299.4000000000001 177.4 256 177.4S177.4 212.6 177.4 256C177.4 269.4 180.7 282 186.6 293L186.6 293C186.6 275.1 201.1 260.7 219 260.7S251.4 275.2 251.4 293C251.4 310.9 236.9 325.4 219 325.4L219 325.4C230 331.3 242.6 334.6 256 334.6C299.4 334.6 334.6 299.4 334.6 256z" />
    <glyph glyph-name="eye2"
      unicode="&#xF018;"
      horiz-adv-x="512" d=" M256.3 359C313.1 359 359 313 359 256.3C359 246.8 357.7 237.5 355.3 228.8L425.6 183.9C442.5 199.7000000000001 457.1 217.9 468.9 237.9000000000001C475.6 249.3 475.6 263.3000000000001 468.9 274.7000000000001C426.3 347.0000000000001 346.9000000000001 395.3000000000001 256.4000000000001 395.3000000000001C214.3000000000001 395.3000000000001 174.7000000000001 384.9000000000001 140 366.4000000000001L189.9 334.5C207.6 349.7 230.9 359 256.3 359z M256.3 334.8C242.9 334.8 230.3 331.5 219.3 325.6C236.6 325.6 250.8 312 251.7 294.9000000000001L333.7000000000001 242.5000000000001C334.5000000000001 247.0000000000001 334.9000000000001 251.5000000000001 334.9000000000001 256.2000000000001C334.9 299.7 299.7 334.9 256.3 334.8z M401.1 163.8L342.9 201C342.9 200.9 342.8 200.9 342.8 200.8L322.4 213.8C322.4 213.9 322.5 213.9 322.5 214L238.8 267.5C238.7 267.5 238.7 267.4 238.6 267.4L169.6 311.5C169.6 311.6 169.7 311.6 169.7 311.7L111.5 348.9C111.4 348.9 111.4 348.8 111.3 348.8L38.2 395.5L22 370.2L87 328.7C70.1 312.9 55.5 294.7 43.7 274.7C37 263.3 37 249.2 43.7 237.9C86.3 165.6 165.7 117.3 256.2 117.3C298.3 117.3 337.9 127.6999999999999 372.6 146.1999999999999L457.1 92.1999999999999L473.3 117.5L400.9 163.8C401 163.7 401.1 163.8 401.1 163.8zM256.3 153.5C199.5 153.5 153.6 199.5 153.6 256.2C153.6 265.7 154.9 275 157.3 283.7L178.9 269.9C178.1 265.4 177.7 260.9 177.7 256.2C177.7 212.8 212.9 177.6 256.3 177.6C273 177.6 288.5 182.8 301.3 191.7000000000001L322.9000000000001 177.9C304.9 162.7 281.7 153.5 256.3 153.5z" />
    <glyph glyph-name="game"
      unicode="&#xF019;"
      horiz-adv-x="512" d=" M465.7 200.9L441.2 305.2C428.8 351.6 386.8 383.8 338.8 383.8H173.3C125.3 383.8 83.3 351.6 70.9 305.2L46.3 200.9C40 171 57.3 141.1 86.4 131.7L87.8 131.2C114.7 122.4 144.1 133.7 158.2 158.3L179.5 189.9C184.9 199.2000000000001 194.8000000000001 204.9 205.5 204.9H306.4000000000001C317.1 204.9 327.0000000000001 199.2000000000001 332.4000000000001 189.9L353.7000000000001 158.3C367.8000000000001 133.8 397.2000000000001 122.5 424.1 131.2L425.5 131.7C454.7 141.1 472 170.9 465.7 200.9M202.5 270.8H168.1V236.4000000000001H138.2V270.8000000000001H103.8V300.7000000000001H138.2V335H168.1V300.6H202.5V270.8zM353.9 342.2C364.3 342.2 372.7 333.8 372.7 323.4C372.7 313 364.3 304.6 353.9 304.6C343.5 304.6 335.1 313 335.1 323.4C335 333.8 343.5 342.2 353.9 342.2M316.2 266.9C305.8 266.9 297.4 275.3 297.4 285.7000000000001C297.4 296.1 305.8 304.5 316.2 304.5C326.6 304.5 335 296.1 335 285.7000000000001C335 275.3 326.6 266.9 316.2 266.9M353.9 229.2C343.5 229.2 335.1 237.6 335.1 248C335.1 258.4 343.5 266.8 353.9 266.8C364.3 266.8 372.7 258.4 372.7 248C372.7 237.7 364.3 229.2 353.9 229.2M391.5 266.9C381.1 266.9 372.7 275.3 372.7 285.7000000000001C372.7 296.1 381.1 304.5 391.5 304.5C401.9 304.5 410.3 296.1 410.3 285.7000000000001C410.3 275.3 401.9 266.9 391.5 266.9" />
    <glyph glyph-name="heart"
      unicode="&#xF01A;"
      horiz-adv-x="512" d=" M363.6 449.2C296.3 448 263.3 400.3 256 357C248.7 400.3 215.7 448 148.4 449.3C86.3 450.4 35 402.7 35 315.5C35 203.7 161.5 152 248.1 68.4C251.1 65.5 250.4 65.6 250.4 65.6C251.8 63.8 253.9 62.8 256 62.8V62.8H256H256V62.8C258.1 62.8 260.2 63.8 261.6 65.6C261.6 65.6 260.9000000000001 65.4999999999999 263.9000000000001 68.4C350.5 152 477 203.7 477 315.5C477 402.7 425.7 450.4 363.6 449.2" />
    <glyph glyph-name="home"
      unicode="&#xF01B;"
      horiz-adv-x="512" d=" M405.1 213.7V106.8C405.1 96.9 397.2000000000001 88.9 387.2000000000001 88.9H300.7000000000001C295.8000000000001 88.9 291.8000000000001 92.9 291.8000000000001 97.8V181.3C291.8000000000001 186.1999999999999 287.8000000000001 190.1999999999999 282.9000000000001 190.1999999999999H229.2000000000001C224.3000000000001 190.1999999999999 220.3000000000001 186.1999999999999 220.3000000000001 181.3V97.8C220.3000000000001 92.9 216.3000000000001 88.9 211.4000000000001 88.9H124.9000000000001C115.0000000000001 88.9 107.0000000000001 96.8 107.0000000000001 106.8V213.7C107.0000000000001 216.3 108.2000000000001 218.9 110.3000000000001 220.6L250.3 336C253.6 338.6 258.3 338.6 261.7 336L401.9 220.7C403.9 218.9 405.1 216.4 405.1 213.7L405.1 213.7zM467.4 259.1L405.1 310.5V413.7C405.1 418.6 401.1 422.6 396.2 422.6H354.5C349.6 422.6 345.6 418.6 345.6 413.7V359.6L278.9000000000001 414.5C265.7000000000001 425.4 246.6 425.4 233.5000000000001 414.5L44.7 259.1C40.9 256 40.4 250.3 43.5 246.5L62.5 223.4C65.6 219.6 71.3 219.1 75.1 222.2L250.4 366.6C253.7 369.2 258.4 369.2 261.8 366.6L437 222.2C440.8 219.1 446.5 219.6 449.6 223.4L468.6 246.5C471.8 250.3 471.2 256 467.4 259.1z" />
    <glyph glyph-name="key"
      unicode="&#xF01C;"
      horiz-adv-x="512" d=" M348.2 266.4C370.3 288.5 384.2 319.4 384.1 353.1C384.1 386.9000000000001 370.3 417.8 348.2 439.8C326.1 461.9 295.2 475.7 261.5 475.7C227.7 475.7 196.8 461.9 174.8 439.8C152.7 417.7000000000001 138.9 386.8 138.9 353.1C138.9 319.4000000000001 152.7 288.5 174.8 266.4000000000001C190.4 250.8 210.4 239.5000000000001 232.6 234.1V37H240.1H290.4000000000001H343.2000000000001V92.4H290.4000000000001V122.6H345.8V160.3H290.4000000000001V234.1C312.7 239.5 332.7 250.8 348.2 266.4zM261.5 306C248.3 306 236.8 311.2 228.1 319.8C219.5 328.5 214.3 340 214.3 353.1C214.3 366.3 219.5 377.8 228.1 386.5C236.8 395.1 248.3 400.3 261.5 400.3C274.7 400.3 286.2 395.1 294.9 386.5C303.5 377.8000000000001 308.7 366.3000000000001 308.7 353.1C308.7 340 303.5 328.4000000000001 294.9 319.8C286.2 311.2 274.6 306 261.5 306z" />
    <glyph glyph-name="light"
      unicode="&#xF01D;"
      horiz-adv-x="512" d=" M270.5 488C281.1 484.9 292 482.5 302.2 478.5C383.9 447 411.6 346.6 357.9 277.6C349.6 266.9 341.1 256.2 333.3 245.2C324.3 232.5 320.9 218 320.9 202.5C320.9 182.6 315.3 177.1 295.8 177.1C267.7 177.1 239.6 177 211.5 177.1C198.9 177.1 191.0999999999999 183 191.5 195.4C192.5999999999999 225.9000000000001 178.5 249.2000000000001 159.5 270.9000000000001C141.3 291.6 130 315.5 127.3 343.2000000000001C120.3 413.9000000000001 165.5999999999999 473.5000000000001 235.8 486.0000000000001C237.8 486.3000000000001 239.6 487.4 241.5 488.1000000000001C251.1 488 260.8 488 270.5 488z M250.5 24C238.2 29.5 228 36.7 227.6 52.3C246.6 52.3 265.2 52.3 284.2 52.3C283.8 36.7 273.7 29.4 261.3 24C257.8 24 254.1 24 250.5 24z M255.5 125.4C240.1 125.4 224.8 125.3 209.4 125.4C197.1 125.5 191 130.5 190.9 140.3C190.8 150 197.3 155.8 209 155.9C240.3 156 271.7 156 303 155.9C314.7 155.8 321.1 150 321 140.3C320.9 130.6999999999999 315 125.6 303.4 125.4C287.4 125.2 271.4 125.4 255.5 125.4z M255.8 74.6C239.8 74.6 223.8 74.5 207.8 74.6C196.8 74.7000000000001 191 79.7000000000001 190.9 89C190.8 98.2 196.5 104.2 207.1 104.6C222.5 105.1 237.9 104.8 253.3 104.8C269.6 104.8 285.9000000000001 104.9 302.2 104.8C310.5 104.7 318 102.6 320.5 93.3C323.1 83.5 316.7 74.9 306.5 74.7C289.7 74.4 272.7 74.6 255.8 74.6z" />
    <glyph glyph-name="logout"
      unicode="&#xF01E;"
      horiz-adv-x="512" d=" M432.9 419.9H223.4C197.4 419.9 176.3 398.8 176.3 372.8V334.8C176.3 333.4 177.4 332.3 178.8 332.3H212.8C214.2 332.3 215.3 333.4 215.3 334.8V364.7000000000001C215.3 373.6 222.5 380.8 231.4 380.8H424.7000000000001C433.6 380.8 440.8000000000001 373.6 440.8000000000001 364.7000000000001V147.1C440.8000000000001 138.2000000000001 433.6000000000001 131 424.7000000000001 131H231.5C222.6 131 215.4 138.2 215.4 147.1V177C215.4 178.4 214.3 179.5 212.9 179.5H178.9C177.5 179.5 176.4 178.4 176.4 177V139C176.4 113 197.5 91.9 223.5 91.9H433C459 91.9 480.1 113 480.1 139V372.8C480 398.8 458.9 419.9 432.9 419.9z M264.9 294.3H153.3V335.2000000000001C153.3 337.4 152.1 339.3 150.1 340.3C149.3 340.7000000000001 148.4 340.9 147.5 340.9C146.3000000000001 340.9 145.1 340.5 144.1 339.8L34.9 257.8C33.5 256.7000000000001 32.6 255 32.6 253.2C32.6 251.4 33.4 249.7 34.9 248.6L144.1 166.6999999999999C145.1 165.8999999999999 146.3 165.5999999999999 147.5 165.5999999999999C148.4 165.5999999999999 149.2 165.7999999999999 150.1 166.1999999999999C152 167.1999999999999 153.3 169.0999999999999 153.3 171.3V212.1999999999999H264.9C268.1 212.1999999999999 270.6 214.8 270.6 217.8999999999999V288.5999999999999C270.7 291.7 268.1 294.3 264.9 294.3zM264.9 217.9L264.9 217.9L264.9 288.6H264.9V217.9z" />
    <glyph glyph-name="mail"
      unicode="&#xF01F;"
      horiz-adv-x="512" d=" M466.3 406.2H45.7C38.3 406.2 32.2 400.2 32.2 392.7V366.1L256 216.1L479.8 366.1V392.7000000000001C479.8 400.2 473.7 406.2 466.3 406.2z M32.2 310.8V133C32.2 103.2 56.4 79 86.2 79H425.7C455.5 79 479.7 103.2 479.7 133V310.8L256 160.8L32.2 310.8z" />
    <glyph glyph-name="megaphone"
      unicode="&#xF020;"
      horiz-adv-x="512" d=" M427.2 339.7C384.9 417.2 332.8 456.7 311.1 428C311.7000000000001 428.8 312.4000000000001 429.6 313.1 430.4C245.3 359 177.6 287.8 109.8 216.5C100.7 216.8 91.6 217.1 82.5 217.3C72.3 217.6 62.1 217.9 51.9 218.2C48.2 218.3 45 216.9 42.6 213.7C41.9 212.7 41.3 211.6 40.7 210.4C40.5 210 40.4 209.5 40.2 209.1C39.9 208.2 39.5 207.3 39.3 206.4C39.2 205.8 39 205.2 38.9 204.6C38.7 203.7 38.5 202.7 38.4 201.7C38.3 201 38.2 200.4 38.2 199.6C38.1 198.5 38.1 197.3 38 196.1C38 195.6 37.9 195.1 37.9 194.6C37.9 194.4 37.9 194.1 37.9 193.9C37.9 193.5 37.9 193 37.9 192.5C37.9 191.3 38 190 38.1 188.7C38.1 188.1 38.2 187.6 38.3 187C38.4 185.7 38.6 184.4 38.7 183.1C38.8 182.5 38.9 182 38.9 181.4C39.1 180.0000000000001 39.4 178.5000000000001 39.6 177.1C39.7 176.6 39.8 176.1 39.9 175.6C40.2 173.9 40.6 172.1 41 170.3C41.1 170 41.1 169.8 41.2 169.6C42.6 163.6 44.5 157.4 46.8 151.1C46.9 150.9 47 150.6 47.1 150.4C48.7 145.9 50.5 141.4 52.6 136.9C52.8 136.5000000000001 52.9 136.2000000000001 53.1 135.8C55.3 130.9 57.7 126 60.4 121.1C80.8 83.8 105.8 64.7000000000001 116.4 78.6L152.5 123.3C250.7 128.2 348.9 133.2 447.2 138.1C447.1 138.1 446.9 138.1 446.8 138.1C453.7 138.4 459.7 141.3 464.3 147.4C486.2 176.1 469.6 262.2 427.2 339.7M123.3 181.1C123.3 181.1 64 161.9 62.6 165C52.3 190.6 56.1 196.1 56.1 196.1L114.2 198.4L284.2 354.5L295.1 305.3L123.3 181.1zM442.8 174.4C441.4000000000001 172.4 439.7 171 437.8 170.1C423.1 163.5 389.6 190.5 359 247.1C322.7 314.1 312.9 379.3 326.5 398.1C327.9 400.1 329.6 401.5 331.5 402.4C346.2 409 379.7 382 410.3 325.4C446.6 258.4 456.4 193.2 442.8 174.4" />
    <glyph glyph-name="news"
      unicode="&#xF021;"
      horiz-adv-x="512" d=" M447.8 327.9V124.9H431V420.8L407.5 400.4C404.5 397.8 400.1 397.8 397.2 400.4L368.4 425.4C363.5 429.7 356.2 429.7 351.2 425.4L322.4 400.4C319.5 397.8 315 397.8 312.1 400.4L283.4 425.4C278.5 429.7 271.2 429.7 266.2 425.4L237.5 400.4C234.5 397.8 230.1 397.8 227.2 400.4L198.5 425.4C193.6 429.7 186.3 429.7 181.3 425.4L152.6 400.4C149.6 397.8 145.2 397.8 142.3 400.4L113.6 425.4C108.7 429.7 101.3 429.7 96.4 425.4L67.7 400.4C64.7 397.8 60.3 397.8 57.4 400.4L34 420.8V121.9C34 111.2000000000001 38.3 101.7000000000001 45.3 94.7000000000001C52.3 87.7000000000001 61.8 83.4 72.5 83.4H426.4C440.7 83.4 453.5 89.2000000000001 462.9 98.5000000000001C472.3 107.9 478 120.7000000000001 478 135.0000000000001V357L447.8 327.9zM94 345.7H205.7V241.1H94V345.7zM366.4 151.5H94V166.5H366.4V151.5zM366.4 196.3H94V211.3H366.4V196.3zM366.4 241.1H250.7V256.1H366.4V241.1zM366.4 285.9H250.7V300.9H366.4V285.9zM366.4 330.6H250.7V345.6H366.4V330.6z" />
    <glyph glyph-name="padlock"
      unicode="&#xF022;"
      horiz-adv-x="512" d=" M388 304.9H193.1V376C193.1 392.8 199.6 408.6 211.5 420.5C223.4 432.4 239.2 438.9 256 438.9C272.8 438.9 288.6 432.3 300.5 420.5C312.4 408.6 318.9 392.8 318.9 376V342.3H366.5V376C366.5 405.5 355 433.3 334.1 454.2C313.2 475 285.5 486.5 256 486.5C256 486.5 255.9 486.5 255.9 486.5C226.4 486.5 198.6 475 177.8 454.1C156.9 433.2 145.4 405.5 145.4 375.9V304.8H123.9C106.5 304.8 92.5 290.7000000000001 92.5 273.4V173.7C92.5 91.5 165.7 24.9 256 24.9C346.3 24.9 419.5 91.5 419.5 173.7V273.4C419.4 290.8 405.4 304.9 388 304.9zM280.9 124.2C281.1 123.1 280.9 122 280.2 121.2C279.5 120.3 278.5 119.9 277.4 119.9H234.4C233.3 119.9 232.3 120.4 231.6 121.2C230.9 122.1 230.7 123.2 230.9 124.2L239.8 162.3C227.8 168.3 220.3 180.5 220.3 194C220.3 213.6 236.3 229.6 255.9 229.6C275.5 229.6 291.5 213.6 291.5 194C291.5 180.4 283.9 168.3 272 162.2L280.9 124.2z" />
    <glyph glyph-name="paperairplane"
      unicode="&#xF023;"
      horiz-adv-x="512" d=" M137.2 70.8L207.3 125C209.4 126.6 209.3 129.7 207.1 131.2L137 178.8C134.5 180.5 131 178.7 131 175.6V73.8C131 70.7 134.7 68.9 137.2 70.8z M29.3 289.3L130.4 216.2000000000001C131.3 215.5000000000001 132.6 215.5000000000001 133.6 216.1L426.9 397.2000000000001L167.5 192.8C166 191.7 166 189.4 167.6 188.3L323.6 76C325.1 74.9 327.1 75.5 327.8 77.2L482.3 437.6C483.3 439.8 481.1 442.1 478.8 441.4L30 294.3C27.9 293.5 27.4 290.6 29.3 289.3z" />
    <glyph glyph-name="pdf"
      unicode="&#xF024;"
      horiz-adv-x="512" d=" M438 390.2C442.9 385.3 447 378.8 450.5 370.4C454 362.1 455.7 354.5 455.7 347.5V48C455.7 41.1 453.3 35.2 448.4 30.3S437.7 23 430.7 23H81.3C74.4 23 68.5 25.4 63.6 30.3S56.3 41 56.3 48V464C56.3 470.9 58.7 476.8 63.6 481.7S74.3 489 81.3 489H314.3C321.2 489 328.9000000000001 487.3 337.2 483.8C345.5 480.3 352.1 476.2 357 471.3L438 390.2zM322.6 453.6V355.8H420.4000000000001C418.7000000000001 360.8 416.8 364.4 414.7000000000001 366.5L333.3000000000001 447.9C331.2 450 327.6 451.9 322.6 453.6zM422.4 56.3V322.6H314.3C307.4000000000001 322.6 301.5 325 296.6 329.9S289.3 340.6 289.3 347.6V455.7H89.6V56.3H422.4zM288.8 210.5C294.5 206 301.8 201.1 310.6 195.9C320.8 197.1 331 197.7 341 197.7C366.5 197.7 381.8 193.5 387 185C389.8 181.2 389.9 176.7 387.5 171.5C387.5 171.3 387.4 171.2 387.2 171L386.7 170.5V170.2C385.7 163.6 379.5 160.3 368.2 160.3C359.9 160.3 349.9 162 338.3 165.5C326.7 169 315.4000000000001 173.6 304.5 179.3C266.2 175.1 232.2 167.9 202.6 157.7C176.1 112.3 155.1 89.6 139.7 89.6C137.1 89.6 134.7 90.2000000000001 132.4 91.4L126.2 94.5000000000001C126 94.7000000000001 125.5 95.1000000000001 124.6 95.8000000000001C122.9 97.5000000000001 122.3 100.7000000000001 123 105.2000000000001C124.6 112.1 129.4 120.1 137.6 129.0000000000001C145.7 137.9 157.2 146.3000000000001 171.9 154.1000000000001C174.3 155.7000000000001 176.3 155.1000000000001 177.9 152.5000000000001C178.2 152.2000000000001 178.4 151.8000000000001 178.4 151.5000000000001C187.4 166.2000000000001 196.7 183.3000000000001 206.2 202.7000000000001C218 226.3000000000001 227 249.0000000000001 233.2 270.8000000000001C229 285 226.4 298.8000000000001 225.3 312.3000000000001C224.2 325.7000000000001 224.7 336.8000000000001 227 345.5000000000001C228.9 352.4000000000001 232.5 355.9000000000001 237.9 355.9000000000001H243.6C247.6 355.9000000000001 250.6 354.6 252.7 352.0000000000001C255.8 348.4000000000001 256.6 342.5000000000001 255 334.3000000000001C254.7 333.3000000000001 254.3 332.6000000000001 254 332.2000000000001C254.2 331.7000000000001 254.3 331.0000000000001 254.3 330.1000000000001V322.3000000000001C254 301.0000000000001 252.7 284.3000000000001 250.7 272.4000000000001C260.3 244 273 223.3 288.8 210.5zM139 103.6C148 107.8 159.9 121.5 174.6 144.7000000000001C165.8 137.8000000000001 158.2 130.5000000000001 151.8 122.9C145.5 115.2 141.2 108.8 139 103.6zM242.5 342.9C239.9 335.6 239.7 324.2000000000001 242 308.6C242.2 309.8 242.8 313.6 243.8 320C243.8 320.5 244.4 324.2000000000001 245.6 331.2000000000001C245.8 331.9 246.1 332.6 246.6 333.3C246.4000000000001 333.5 246.3 333.6 246.3 333.8C246.1 334.1 246 334.4 246 334.6C245.8 338.4000000000001 244.7 341.5 242.6 344C242.6 343.8000000000001 242.5 343.7000000000001 242.3 343.5V342.9zM210.2 171C233.6 180.4 258.2 187.4 284.1 192.1C283.8 192.3 282.6 193.1 280.7000000000001 194.6C278.8000000000001 196.1 277.4000000000001 197.2000000000001 276.5000000000001 198.1C263.3000000000001 209.7000000000001 252.3000000000001 225 243.5000000000001 243.9000000000001C238.8000000000001 229.0000000000001 231.6000000000001 211.9 221.9000000000001 192.7000000000001C216.7 182.8 212.8 175.6 210.2 171zM378.2 175.1C374 179.3 361.9 181.3 341.8 181.3C355 176.4 365.7 174 374 174C376.4 174 378 174.1 378.7 174.3C378.7 174.5 378.6 174.8 378.2 175.1z" />
    <glyph glyph-name="point"
      unicode="&#xF025;"
      horiz-adv-x="512" d=" M262.8 306.2H233.1V246.5H262.8C281.6 246.5 296.9000000000001 259.9 296.9000000000001 276.4C296.8 292.8 281.5 306.2 262.8 306.2 M256 471.1C137.2 471.1 40.9 374.8 40.9 256C40.9 137.2 137.2 40.9 256 40.9S471.1 137.2 471.1 256C471.1 374.8 374.8 471.1 256 471.1M262.8 213.3H233.1V169.8C233.1 161.4 226.3 154.7 218 154.7H210.4C202 154.7 195.3000000000001 161.5 195.3000000000001 169.8V324.3C195.3000000000001 332.7000000000001 202.1000000000001 339.4 210.4 339.4H262.8C302.5 339.4 334.7000000000001 311.1 334.7000000000001 276.4C334.7 241.6 302.4 213.3 262.8 213.3" />
    <glyph glyph-name="present"
      unicode="&#xF026;"
      horiz-adv-x="512" d=" M94.4 306V202.5H231.6V320.1H108.5C100.6 320.1 94.4 313.8 94.4 306 M403.6 320.1H280.4V202.5H417.6V306C417.6 313.8 411.4 320.1 403.6 320.1 M94.4 58.1C94.4 50.3 100.7 44 108.5 44H231.6V161.6H94.4V58.1z M280.4 44H403.5C411.3 44 417.6 50.3 417.6 58.1V161.6H280.4V44z M369.2 374C375 380.3 379.7 387.3 382.9 394.5C386.1 401.8 388 409.5 388 417.3C388 422.5 387.2 427.7 385.5 432.7C383.6 438.3 380.8 443.3 377.3 447.8C372.1 454.4 365.4000000000001 459.5 358.1 462.9C350.8 466.3 342.6 468.1 334.4000000000001 468.1C328.4000000000001 468.1 322.2000000000001 467.2 316.2000000000001 465.2C307.2000000000001 462.3 298.7000000000001 457 291.4000000000001 449.5C284.1 442 278.3 432.1 274.4000000000001 420.2C269.4000000000001 404.7 254.2000000000001 369.6 253.9000000000001 368.8H252.5000000000001C252.1 369.6 237.0000000000001 404.8 232.0000000000001 420.2000000000001C229.5000000000001 428.1 226.0000000000001 435.2000000000001 221.8000000000001 441.2000000000001C215.6000000000001 450.2000000000001 207.7000000000001 457.1 199.1000000000001 461.6C190.3 465.9 181 468 172 468C161 468 150.2 464.9 141.2 458.9C136.7 455.9 132.5 452.2 129 447.8C125.5 443.4 122.7 438.4 120.8 432.7C119.1 427.7 118.3 422.5 118.3 417.3S119.1 406.9 120.7 401.9C123.3 393.1 128 384.8 134.4 377.1C143.9 365.7 157 355.8 172.9 348.7S207.6 337.4 228.3 337.4C240.1 337.4 252.9 337.3 253.4 337.4C253.9 337.3 266.7 337.4 278.5 337.4C294.2 337.4 308.9 339.8 322 344.2C341.4 350.7 357.6 361.2 369.2 374M304.4 427.3C308.5 433.3 313.4 437.4 318.4 440C323.5 442.6 329 443.9 334.2 443.9C340.6 443.9 346.8 442 351.7 438.7C354.1 437.1 356.4 435 358.2 432.8C360 430.4 361.5 427.8 362.5 424.8C363.3 422.4 363.7 419.9 363.7 417.3C363.7 414.7 363.3 411.8 362.4 408.8C360.8 403.6 357.8 398 353.3 392.5C346.5 384.3 336.3 376.5 323.6 370.8C310.8 365.1 295.4 361.6 278 361.6C277.1 361.6 276.1 361.6 275.3 361.6C281.6 372.2000000000001 289.2 388.3 297.2 412.5C299.2 418.4 301.6 423.2 304.4 427.3M145.4 404.3C143.3 408.9 142.4 413.3 142.4 417.3C142.4 419.9 142.8 422.5 143.6 424.8L143.6 424.8C144.6 427.8 146.1 430.5 147.9 432.8C150.6 436.3 154.2 439 158.4 440.9C162.5 442.8 167.2 443.8 172 443.8C175.5 443.8 179.1 443.2 182.6 442.1C187.9 440.4 193 437.3 197.5 432.6C202 427.8 206.1 421.3 209 412.5C216.9 388.3 224.5 372.2 230.9 361.6C230.1 361.6 229.1 361.6 228.2 361.6C214.9 361.6 202.9 363.7 192.2 367.2C176.2 372.5 163.5 381 155 390.2C150.6 394.8 147.4 399.7 145.4 404.3" />
    <glyph glyph-name="question"
      unicode="&#xF027;"
      horiz-adv-x="512" d=" M297.8 99.1V161.9C297.8 165.0000000000001 296.8 167.5000000000001 294.9000000000001 169.4S290.4000000000001 172.3 287.4000000000001 172.3H224.6C221.5 172.3 219 171.3 217.1 169.4S214.2 164.9 214.2 161.9V99.1C214.2 96 215.2 93.5 217.1 91.6S221.6 88.7000000000001 224.6 88.7000000000001H287.4000000000001C290.5000000000001 88.7000000000001 293.0000000000001 89.7000000000001 294.9000000000001 91.6S297.8 96.1 297.8 99.1zM381.5 318.7C381.5 337.9 375.5 355.6 363.4 372S336.2 401 318.1 409.9C300 418.8 281.5 423.3 262.5 423.3C209.5999999999999 423.3 169.0999999999999 400.1 141.1999999999999 353.7000000000001C137.8999999999999 348.5 138.7999999999999 343.9 143.7999999999999 340L186.8999999999999 307.3C188.3999999999999 306 190.4999999999999 305.3 193.0999999999999 305.3C196.5999999999999 305.3 199.2999999999999 306.6 201.2999999999999 309.2000000000001C212.7999999999999 324 222.1999999999999 334 229.3999999999999 339.3C236.7999999999999 344.5 246.1999999999999 347.1 257.4999999999999 347.1C267.9999999999999 347.1 277.2999999999999 344.3 285.3999999999999 338.6C293.5999999999999 332.9000000000001 297.6999999999999 326.5 297.6999999999999 319.3C297.6999999999999 311 295.4999999999999 304.4 291.1999999999999 299.4S279.3999999999999 289.5 268.9999999999999 284.7000000000001C255.2999999999999 278.6 242.6999999999999 269.2000000000001 231.2999999999999 256.4C219.8999999999999 243.7 214.0999999999999 230 214.0999999999999 215.4V203.6C214.0999999999999 200.5 215.0999999999999 198 216.9999999999999 196.1S221.4999999999999 193.2 224.4999999999999 193.2H287.2999999999999C290.3999999999999 193.2 292.8999999999999 194.2 294.7999999999999 196.1S297.6999999999999 200.6 297.6999999999999 203.6C297.6999999999999 207.7 299.9999999999999 213.1 304.6999999999999 219.8C309.3999999999999 226.4 315.2999999999999 231.8 322.4999999999999 236C329.4999999999999 239.8999999999999 334.7999999999999 243 338.4999999999999 245.3C342.1999999999999 247.6 347.1999999999999 251.4 353.4999999999999 256.7C359.7999999999999 262 364.6999999999999 267.3 367.9999999999999 272.4C371.3999999999999 277.5 374.3999999999999 284.0999999999999 377.1999999999999 292.2S381.5 309.2 381.5 318.7zM507 256C507 210.5 495.8 168.5 473.3 130C450.9 91.5 420.4000000000001 61.1 382 38.7C343.5 16.3 301.5 5 256 5S168.5 16.2 130 38.7C91.5 61.1 61.1 91.6 38.7 130S5 210.5 5 256S16.2 343.5 38.7 382S91.6 450.9 130 473.3S210.5 507 256 507S343.5 495.8 382 473.3S450.9 420.4 473.3 382C495.8 343.5 507 301.5 507 256z" />
    <glyph glyph-name="quiz"
      unicode="&#xF028;"
      horiz-adv-x="512" d=" M189.8 181.6C116.7 181.6 57.3 241.1 57.3 314.1S116.7 446.7 189.8 446.7S322.3 387.2 322.3 314.2H274.1C274.1 360.7 236.3 398.6 189.7 398.6S105.3 360.8 105.3 314.2S143.1 229.8 189.7 229.8C197.1 229.8 204.4 230.7 211.4 232.6L223.8 186C212.8 183.1 201.4 181.6 189.8 181.6z M453 281.9L424.6 310.3L331.4 217.1L238.1 310.3L209.7 281.9L303 188.7L209.7 95.4L238.1 67L331.4 160.3L424.6 67L453 95.4L359.8 188.7z" />
    <glyph glyph-name="search"
      unicode="&#xF029;"
      horiz-adv-x="512" d=" M505 69.3L405.3 169C400.8 173.5 394.7 176 388.3 176H372C399.6 211.3 416 255.7 416 304C416 418.9 322.9 512 208 512S0 418.9 0 304S93.1 96 208 96C256.3 96 300.7 112.4 336 140V123.7C336 117.3 338.5 111.2 343 106.7L442.7 7C452.1 -2.4 467.3 -2.4 476.6 7L504.9 35.3C514.3 44.7 514.3 59.9 505 69.3zM208 176C137.3 176 80 233.2 80 304C80 374.7 137.2 432 208 432C278.7 432 336 374.8 336 304C336 233.3 278.8 176 208 176z" />
    <glyph glyph-name="sign-in-alt"
      unicode="&#xF02A;"
      horiz-adv-x="512" d=" M416 64H332C325.4 64 320 69.4 320 76V116C320 122.6 325.4 128 332 128H416C433.7 128 448 142.3 448 160V352C448 369.7 433.7 384 416 384H332C325.4 384 320 389.4 320 396V436C320 442.6 325.4 448 332 448H416C469 448 512 405 512 352V160C512 107 469 64 416 64zM369 265L201 433C186 448 160 437.5 160 416V320H24C10.7 320 0 309.3 0 296V200C0 186.7 10.7 176 24 176H160V80C160 58.5 186 48 201 63L369 231C378.3 240.4 378.3 255.6 369 265z" />
    <glyph glyph-name="survey"
      unicode="&#xF02B;"
      horiz-adv-x="512" d=" M177 365.1C161 365.1 148.1 378 148.1 394V416C148.1 432 161 444.9 177 444.9H199.1C203 457.8 214.7 466.5 228.3 466.5S253.5 457.9 257.5 444.9H279.6C295.6 444.9 308.5 432 308.5 416V394C308.5 378 295.6 365.1 279.6 365.1H177zM228.3 446.3C222.5 446.3 217.9 441.6 217.9 435.9C217.9 430.1 222.6 425.5 228.3 425.5S238.7 430.2 238.7 435.9C238.7 441.6 234.1 446.3 228.3 446.3z M228.3 466.1C241.9 466.1 253.4 457.2 257.1 444.5H279.6C295.3 444.5 308 431.7 308 416.1V394.1C308 378.4 295.2 365.7 279.6 365.7H177C161.3 365.7 148.6 378.5 148.6 394.1V416.1C148.6 431.8 161.4 444.5 177 444.5H199.5C203.1 457.2 214.7 466.1 228.3 466.1M228.3 425.1C234.3 425.1 239.1 430 239.1 435.9S234.2 446.7 228.3 446.7S217.5 441.8 217.5 435.9S222.3 425.1 228.3 425.1M228.3 467C214.6 467 202.9 458.4 198.8 445.4H177C160.8 445.4 147.6 432.2 147.6 416V394C147.6 377.8 160.8 364.6 177 364.6H279.6C295.8 364.6 309 377.8 309 394V416C309 432.2 295.8 445.4 279.6 445.4H257.9000000000001C253.7 458.4 241.9 467 228.3 467L228.3 467zM228.3 426C222.8 426 218.4 430.5 218.4 435.9C218.4 441.4 222.9 445.8 228.3 445.8C233.8 445.8 238.2 441.3 238.2 435.9C238.3 430.4 233.8 426 228.3 426L228.3 426z M136.7 314.5L146.8 324.6L163.4 308L189.4 334.1L199.5 324L163.4 287.8z M189.4 333.4L198.8 324L172.8 298L163.4 288.6L137.4 314.6L146.8 324L163.3 307.5L189.4 333.4M189.4 334.7L188.8 334.1L163.5 308.8L147.6 324.7L147 325.3L146.4 324.7L136.9 315.3L136.3 314.7L136.9 314.1L162.9 288.1L163.5 287.5L164.1 288.1L173.5 297.5L199.5 323.5L200.1 324.1L199.5 324.7L190.1 334.1L189.4 334.7L189.4 334.7z M136.7 246.6L146.8 256.6L163.4 240.1L189.4 266.1L199.5 256L163.4 219.9z M189.4 265.4L198.8 256L172.8 230L163.4 220.6L137.4 246.6L146.8 256L163.3 239.5L189.4 265.4M189.4 266.7L188.8 266.1L163.5 240.8L147.6 256.7000000000001L147 257.3L146.4 256.7000000000001L136.9 247.3L136.3 246.7L136.9 246.1L162.9 220.1L163.5 219.5L164.1 220.1L173.5 229.5L199.5 255.5L200.1 256.0999999999999L199.5 256.7L190.1 266.0999999999999L189.4 266.7L189.4 266.7z M136.7 178.7L146.8 188.8L163.4 172.2L189.4 198.2L199.5 188.1L163.4 152.1z M189.4 197.6L198.8 188.2000000000001L163.4 152.8000000000001L137.4 178.8000000000001L146.8 188.2000000000001L163.3 171.7000000000001L189.4 197.6M189.4 198.8L188.8 198.2L163.5 172.9L147.6 188.8L147 189.4L146.4 188.8L136.9 179.4L136.3 178.8L136.9 178.1999999999999L162.9 152.1999999999999L163.5 151.5999999999999L164.1 152.1999999999999L199.5 187.5999999999999L200.1 188.1999999999999L199.5 188.8L190.1 198.1999999999999L189.4 198.8L189.4 198.8z M387.4 297.4L399.3 309.3C403.1 313.1 408 315.1 413.2 315.1C418.3999999999999 315.1 423.3999999999999 313.1 427.0999999999999 309.3L439.4999999999999 296.9C447.1999999999999 289.2000000000001 447.1999999999999 276.7000000000001 439.4999999999999 269L427.5999999999999 257.1L387.4 297.4z M413.3 314.7C418.3 314.7 423.2 312.8 427 309L439.4 296.6C446.9 289.1 446.9 276.9 439.4 269.4L427.7 257.7000000000001L388.1 297.3L399.8 309C403.5 312.8 408.5 314.7 413.3 314.7M413.3 315.6C407.9000000000001 315.6 402.8 313.5 399 309.6L387.4 298L386.8 297.4L387.4 296.8L427 257.2000000000001L427.6 256.6L428.2000000000001 257.2000000000001L439.9000000000001 268.9C447.8 276.8 447.8 289.6 439.9000000000001 297.4L427.5000000000001 309.8C423.8 313.5 418.7 315.6 413.3 315.6L413.3 315.6z M278.8 148.5L278.8 188.8L377.3 287.2L417.6 246.9L319.2 148.5z M377.3 286.5L416.9000000000001 246.9L318.9000000000001 148.9H279.3V188.5L377.3 286.5M377.3 287.8L376.7 287.2000000000001L278.7 189.2000000000001L278.4 188.9V188.5000000000001V148.9V148.0000000000001H279.3H318.9H319.3L319.6 148.3000000000001L417.6 246.3000000000001L418.2 246.9000000000001L417.6 247.5000000000001L378 287.1000000000002L377.3 287.8L377.3 287.8z M350.7 379.5C350.7 379.7 350.5 379.9 350.3 379.9H324.8L325 380.5C326.3 384.9 327 389.5 327 394.1V416C327 417.7 326.9 419.3 326.7 421L326.6 421.6H346.8C370.8 421.6 390.4 402.1 390.4 378V326.6L350.7 286.9L350.7 379.5L350.7 379.5z M346.9 421C370.7 421 390 401.6 390 377.9V326.7L351.2 287.9V379.4C351.2 379.9 350.8 380.2 350.4 380.2H325.5C326.8 384.5 327.5 389.1 327.5 393.9V415.9C327.5 417.6 327.4 419.3 327.2 420.9L346.9 421M346.9 422H327.3H326.3L326.4 421C326.6 419.3 326.7 417.7 326.7 416V394C326.7 389.5 326.1 384.9 324.7 380.6L324.3 379.4H325.5H350.4V287.9V285.7000000000001L352 287.3L390.8 326.1L391.1 326.4000000000001V326.8000000000001V378.0000000000001C390.9 402.2 371.2 422 346.9 422L346.9 422z M109.7 45.5C85.7 45.5 66.1 65 66.1 89.1V377.9C66.1 401.9 85.6 421.5 109.7 421.5H129.9L129.8 420.9C129.6 419.2 129.5 417.6 129.5 415.9V393.9C129.5 389.3 130.1 384.7 131.5 380.3L131.7 379.7000000000001H106.2C106 379.7000000000001 105.8 379.5 105.8 379.3V96C105.8 95.8 106 95.6 106.2 95.6H350.2C350.3999999999999 95.6 350.5999999999999 95.8 350.5999999999999 96V159.1H355.7L390.3 193.7000000000001V89.1C390.3 65.1 370.8 45.5 346.7 45.5L109.7 45.5L109.7 45.5z M129.4 421C129.2 419.3 129.1 417.7 129.1 416V394C129.1 389.2 129.8 384.6 131.1 380.3H106.2C105.7 380.3 105.4 379.9 105.4 379.5V96C105.4 95.5 105.8 95.2 106.2 95.2H350.2C350.7 95.2 351 95.6 351 96V158.7H355.9L389.8 192.6V89C389.8 65.2 370.4 45.9 346.7 45.9H109.7C85.9 45.9 66.6 65.3 66.6 89V377.9C66.6 401.7 86 421 109.7 421H129.4M130.4 422H129.4H109.8C85.5 422 65.8 402.3 65.8 378V89C65.8 64.7 85.5 45 109.8 45H346.9C371.2 45 390.9 64.7 390.9 89V192.5V194.7L389.3 193.1L355.6 159.4H351.1H350.2V158.5V95.8H106.4V379.4H131.3H132.5L132.1 380.6C130.8 385 130.1 389.5 130.1 394V416C130.1 417.7 130.2 419.2 130.4 421L130.4 422L130.4 422z" />
    <glyph glyph-name="user"
      unicode="&#xF02C;"
      horiz-adv-x="512" d=" M256 256C320.1 256 372 307.9 372 372S320.1 488 256 488S140 436.1 140 372S191.9 256 256 256zM337.2 227H322.1C302 217.8 279.6 212.5 256 212.5S210.1 217.8 189.9 227H174.8C107.6 227 53 172.4 53 105.2V67.5C53 43.5 72.5 24 96.5 24H415.5C439.5 24 459 43.5 459 67.5V105.2C459 172.4 404.4 227 337.2 227z" />
    <glyph glyph-name="user2"
      unicode="&#xF02D;"
      horiz-adv-x="512" d=" M256 471C137.2 471 41 374.8 41 256S137.2 41 256 41S471 137.2 471 256S374.8 471 256 471zM256 387.8C298.1 387.8 332.3 353.6 332.3 311.5S298.1 235.2 256 235.2S179.7 269.4 179.7 311.5S213.9 387.8 256 387.8zM256 89.5C205.1 89.5 159.5 112.6 129 148.6C145.3 179.3 177.2 200.4 214.4 200.4C216.5 200.4 218.6 200.1 220.6 199.4C231.9 195.8 243.7 193.4 256.1 193.4C268.5 193.4 280.4000000000001 195.7000000000001 291.6 199.4C293.6 200.0000000000001 295.7000000000001 200.4 297.8 200.4C335 200.4 366.9 179.2000000000001 383.2000000000001 148.6C352.5 112.6 306.9 89.5 256 89.5z" />
    <glyph glyph-name="user3"
      unicode="&#xF02E;"
      horiz-adv-x="512" d=" M254.9 171.8C305 171.8 345.6 212.4 345.6 262.5S305 353.2 254.9000000000001 353.2S164.2000000000001 312.6 164.2000000000001 262.5S204.8 171.8 254.9 171.8zM318.4 166.7H306.5C290.8 159.4 273.3 155.4 254.9 155.4S219 159.5 203.3 166.7H191.4C138.8 166.7 96.2 124.1 96.2 71.5V42C96.2 23.2 111.5 8 130.2 8H379.7C398.5 8 413.7 23.3 413.7 42V71.5C413.7 124.1 371 166.7 318.4 166.7z M165.5 476C165.5 470.0905531768105 170.2905531768105 465.3 176.2 465.3C182.1094468231895 465.3 186.9 470.0905531768105 186.9 476C186.9 481.9094468231895 182.1094468231895 486.7 176.2 486.7C170.2905531768105 486.7 165.5 481.9094468231895 165.5 476z M322.9000000000001 476C322.9000000000001 470.0905531768105 327.6905531768105 465.3 333.6 465.3C339.5094468231896 465.3 344.3 470.0905531768105 344.3 476C344.3 481.9094468231895 339.5094468231896 486.7 333.6 486.7C327.6905531768105 486.7 322.9000000000001 481.9094468231895 322.9000000000001 476z M244.2 493.9C244.2 487.9905531768105 248.9905531768105 483.2 254.9 483.2C260.8094468231895 483.2 265.6 487.9905531768105 265.6 493.9C265.6 499.8094468231895 260.8094468231895 504.6 254.9 504.6C248.9905531768105 504.6 244.2 499.8094468231895 244.2 493.9z M317.5 383.7L326.8 455.8L288.8 428.9L254.9 473.6L221 428.9L183 455.8L192.3 383.7z" />
    <glyph glyph-name="wallet"
      unicode="&#xF02F;"
      horiz-adv-x="512" d=" M79 220.7C76.8 220.7 74.6 221.2 72.5 222.2C68.8 224.1 66 227.5 64.9 231.5C64.2 234.3 64.3 237.2 65.1 239.8C65.2 240.2 65.3 241.9000000000001 65.3 244.9000000000001C65.3 247.9000000000001 65.2 251.3 65 255.2000000000001C64.8 260.5000000000001 64.6 266.5000000000001 64.6 273.2000000000001C64.6 286.0000000000001 65.4 305.6 72.3 326.6C79.6 348.8000000000001 92.3 368.5000000000001 110.2 385.3000000000001C127.3 401.4000000000001 148 413.4000000000001 171.9 421.3000000000001C170.9 425.4000000000001 170.4 429.6 170.4 433.9000000000001C170.4 463.7 194.7000000000001 488.0000000000001 224.5 488.0000000000001C237.3000000000001 488.0000000000001 247.5000000000001 480.3000000000001 255.5000000000001 471.7C263.5 480.2 273.7000000000001 488.0000000000001 286.5 488.0000000000001C316.4 488.0000000000001 340.6 463.7 340.6 433.9000000000001C340.6 429.6 340.1 425.4000000000001 339.1 421.3000000000001C363 413.5000000000001 383.7000000000001 401.4000000000001 400.8 385.3000000000001C418.7 368.5000000000001 431.4000000000001 348.8000000000001 438.6 326.6C445.5 305.6 446.3 286.1 446.3 273.2000000000001C446.3 266.7000000000001 446.1 260.7000000000001 445.9000000000001 255.4000000000001C445.7000000000001 251.5000000000001 445.6 247.9000000000001 445.6 244.9000000000001C445.6 241.9000000000001 445.8 240.3 445.8 239.9000000000001C446.8 231.9000000000001 441.2 224.6 433.2 223.6C425.2 222.5 417.9 228.2000000000001 416.9 236.2000000000001C416.6 238.6 416.4 241.5000000000001 416.4 244.9000000000001C416.4 248.2000000000001 416.5 252.1 416.7 256.5C416.9 261.5 417.1 267.2000000000001 417.1 273.2000000000001C417.1 284.1 416.5 300.5 410.9 317.5C405.2 335 395.1 350.6 380.8 364C364.2 379.8 343 390.9 318 397L317.3 397.2C316.8 397.3 316.3 397.4 315.8 397.5C311.2 398.6 307.3 401.9 305.6 406.4S304.4000000000001 415.9 307.1 419.8C309.9000000000001 423.9 311.4000000000001 428.8 311.4000000000001 433.8C311.4000000000001 447.6 300.2000000000001 458.8 286.4000000000001 458.8C281.7000000000001 458.8 271.6 445.9 268.3 441.6L266.9000000000001 439.8C264.1 436.3 259.9000000000001 434.2000000000001 255.4000000000001 434.2000000000001C255.4000000000001 434.2000000000001 255.4000000000001 434.2000000000001 255.4000000000001 434.2000000000001C250.9000000000001 434.2000000000001 246.7000000000001 436.3 243.9000000000001 439.8L242.5000000000001 441.5C239.2 445.8 229.1 458.7 224.3000000000001 458.7C210.5 458.7 199.3000000000001 447.5 199.3000000000001 433.7000000000001C199.3000000000001 428.7000000000001 200.8000000000001 423.9000000000001 203.6000000000001 419.7000000000001C206.3000000000001 415.7000000000001 206.8000000000001 410.7000000000001 205.1000000000001 406.2000000000001C203.4000000000001 401.7000000000001 199.5000000000001 398.4000000000001 194.9000000000001 397.3L192.7000000000001 396.8C167.8000000000001 390.7000000000001 146.6000000000001 379.6 130.0000000000001 363.9C115.7000000000001 350.5 105.6000000000001 334.8 99.9000000000001 317.4C94.3000000000001 300.3 93.7000000000001 283.9 93.7000000000001 273.1C93.7000000000001 267 93.9000000000001 261.3 94.1000000000001 256.3C94.3000000000001 252 94.4000000000001 248.1 94.4000000000001 244.8C94.4000000000001 240.2 94.1000000000001 236.4000000000001 93.5000000000001 233.7C93.3000000000001 232.8 93.1000000000001 231.9 92.8000000000001 231C92.6000000000001 230.2 92.2000000000001 229.4 91.9000000000001 228.6C89.4 223.7 84.3 220.7 79 220.7z M408.2 271.3C402.2 279.7000000000001 396.5 289.6 391.5 302.8C380.4 331.8 364.1 352.3 341.5 364.8C318.9 377.3 290.9 381.9 256.1 381.9C221.3 381.9 193.3 377.3 170.7 364.8C148.1 352.3 131.8 331.8 120.7 302.8C115.6 289.7000000000001 109.9 279.7000000000001 104 271.3L80.5 260.3C80.5 256.6 80.3 253.7 79.9 252.1C79.8 251.3 79.6 250.8 79.5 250.7000000000001L79.5 250.7000000000001L79.5 250.7000000000001C76.9 247.8000000000001 76.1 244.0000000000001 76.9 240.4000000000001C75.9 239.4000000000001 74.9 238.4000000000001 73.9 237.4000000000001C66.1 229.1 58.6 220.0000000000001 53.1 207.7000000000001H52.7C47.2 194.9 44.1 179.0000000000001 44.1 157.8000000000001C44.1 136.0000000000001 49.6 116.2000000000001 60.1 99.3000000000001C75.8 73.9000000000001 101.9 55.0000000000001 135.4 42.5000000000001C168.9 30.0000000000001 209.8000000000001 23.7 256 23.7C317.6 23.7 369.9 34.8000000000001 407.5 57.1C426.3 68.3 441.5 82.3 451.9 99.3C462.3 116.2 467.9 135.9 467.9 157.8C467.9 179.1 464.7 194.9 459.3 207.7H458.8C454.8 216.8 449.6 224.3 444 230.8C441.1 234.2 438.1 237.3 435.1 240.4000000000001C435.9 244.0000000000001 435.1 247.8 432.5 250.7000000000001L432.5 250.7000000000001C432.3999999999999 250.8000000000001 432.1 251.8000000000001 431.8999999999999 253.5000000000001C431.7 255.2000000000001 431.5999999999999 257.5000000000001 431.5999999999999 260.4000000000001L408.2 271.3z" />
  </font>
</defs>
</svg>
